extratorrent - A Fan Made AlternativeLogin   |   Register
Important Information
Registrations are open now
-------------------------------------

Please click here to register with Extratorrent2 to recieve latest updates, add bookmarks and to post comments.

Friends
Friends

1) Filebebo
-------------------------------------
2) MoviesDig
-------------------------------------
3) Torrentz2.cc
-------------------------------------
4) Torrents.me

Extratorrent2 > Categories > Movies > G.I. Joe Retaliation 2013 720p Esub BluRay Dual Audio English Hindi GOPISAHI torrent


Browse Movies torrents

G.I. Joe Retaliation 2013 720p Esub BluRay Dual Audio English Hindi GOPISAHI torrent


Download torrent: Download G.I. Joe Retaliation 2013 720p Esub BluRay Dual Audio English Hindi GOPISAHI torrent Magnet link Bookmark Torrent: G.I. Joe Retaliation 2013 720p Esub BluRay Dual Audio English Hindi GOPISAHI   G.I. Joe Retaliation 2013 720p Esub BluRay Dual Audio English Hindi GOPISAHI torrent
Info hash: E91A5D1C2134E12DEDF7F5A04EBA870EE36685A4
Category: Categories > Movies
Trackers:
View all torrent trackers >
Health:
 seeds: 29 ,  leechers: 22 |  Update >
Torrent language: English English
Total Size: 610.6 MB
Files List:
1    View torrent files >
Uploader:
PENDUDESI
Torrent added: April 17, 2018, 8:30 am
Users rating: ---, not rated. please login to rate.

Download G.I. Joe Retaliation 2013 720p Esub BluRay Dual Audio English Hindi GOPISAHI torrent



Torrent Description


Format : Matroska

Format version : Version 4 / Version 2

File size : 611 MiB

Duration : 1 h 50 min

Overall bit rate : 774 kb/s

Movie name : G.I. Joe Retaliation 2013 GOPISAHI


VideoID : 1

Format : AVC

Codec ID : V_MPEG4/ISO/AVC

Duration : 1 h 50 min

Bit rate : 600 kb/s

Width : 1 280 pixels

Height : 534 pixels

Display aspect ratio : 2.40:1

Frame rate mode : Constant

Frame rate : 23.976 (24000/1001) FPS

Stream size : 473 MiB (77%)

Title : GOPISAHI

Writing library : x264 core 148 r2708 86b7198


Audio #1

Format : AAC

Duration : 1 h 50 min

Bit rate : 87.0 kb/s

Channel(s) : 6 channels

Channel positions : Front: L C R, Side: L R, LFE

Sampling rate : 44.1 kHz

Frame rate : 43.066 FPS (1024 SPF)

Compression mode : Lossy

Stream size : 68.6 MiB (11%)

Title : GOPISAHI

Language : Hindi


Audio #2

Format : AAC

Duration : 1 h 50 min

Bit rate : 84.9 kb/s

Channel(s) : 6 channels

Channel positions : Front: L C R, Side: L R, LFE

Sampling rate : 44.1 kHz

Frame rate : 43.066 FPS (1024 SPF)

Compression mode : Lossy

Stream size : 67.0 MiB (11%)

Title : GOPISAHI

Language : English


Text

Language : English



Download G.I. Joe Retaliation 2013 720p Esub BluRay Dual Audio English Hindi GOPISAHI torrent


Related Torrents


Comments   (please login to add your comment!)


Home - Browse Torrents

Made with love by an Extratorrent Fan!